Piano Sonatas : Ludwig van Beethoven on Kunst der Fuge site: List of pages: Piano. Beethoven refurbished the classical form of the sonata and made structure subservient to individual impulse. Stream Beethoven: Piano Sonatas Nos.16-18 by Alfred Brendel and tens of millions of other songs on all your devices with Amazon Music Unlimited.Exclusive discount for Prime members. Boris Giltburg has set out to study and film all of Beethoven’s 32 piano sonatas by the end of 2020. 2 - Loewe: Piano Concerto No. Molto vivace, Piano Sonata No.4 in Eb major, Op.7 (Grand Sonata), "Moonlight Sonata, Op. 6 and piano sonata no. 30 in E Major, Op. Dura aproximadamente 25 minutos. 4 (Beethoven) and more. 1 - 3. Universal (Japan) UCGG-9163/5 (3 discs) Stereo Single Layer. 16 In G Major, Opus 31, No. 31 No. Ludwig van Beethoven: Piano Sonata No.16 in G, Op.31, No.1 - Play streams in full or download MP3 from Classical Archives (classicalarchives.com), the largest and … Op. 16 1st Movement.png 2,315 × 583; 92 KB Sonata No. Beethoven: Piano Sonata No. 16 is a comic number. Piano sonatas are usually written in three or four movements, although piano sonatas have been written with one movement (Scarlatti, Scriabin), two movements (Beethoven), five (Brahms' Third Piano Sonata) or even more movements. A number of videos have been doing the rounds in recent months with proof of the memories unlocked by the power of melody. Allegretto, a song by Wilhelm Backhaus on TIDAL 6 and piano sonata no. Rondo (Allegretto), a song by Emil Gilels on TIDAL However, the Op. Hans von Bülow called them "The New Testament" of the piano … BEETHOVEN: Piano Sonata No. El Opus 31 n.º 1 consta de tres movimientos: Allegro Vivace; Adagio grazioso; Rondo: Allegretto Barenboim: Beethoven - Piano Sonatas no. 1 (HL.296946). First Movement (Allegro Vivace) But Nos. 1., op. 16-20 Maurizio Pollini (piano) Pollini is not a pianist with a sense of humour, but his playing has a trim, classical cut with plenty of vitality, and a blunt, brusque Beethoven … 16 and 18 should not be neglected: although they are, obviously, not as exciting or innovative as some of the great later sonatas (“Waldstein”, “Appassionata”), they bear testimony both to Beethoven’s … 31, No. Simply track your practice time, set goals, and get help completing homework assignments. Alfred Brendel in his essay "Must classical music be entirely serious?" 2, F minor is an early music from Beethoven’s first creative period, but already carries the marks of the musical revolution he was about to unleash. 3. Bonn 1770 - Vienna 1827 . 16 in G Major, Op. First movement – Allegro, F minor, sonata form. 1 Beethoven: Piano Sonata No. Piano sonatas are usually written in three or four movements, although piano sonatas have been written with one movement (Scarlatti, Scriabin), two movements (Beethoven), five (Brahms' Third Piano Sonata) or even more movements. 2 ‘Moonlight' Beethoven: Piano Sonata No. 14 sonatas together with the sonata in f minor, op. Écoutez des chansons intégrales de Beethoven: Piano Sonata No. 1-6 (24/96 FLAC) Barenboim: Beethoven - Piano Sonatas no. One of the greatest and most radical composers of all time. 49 sonatas, even having the word “easy” in the title; it also offers the two op. Piano Sonata No. 57 "Appassionata": I. Allegro assai DR16 -2.79 dB -28.18 dB 7:17 09-Ludwig van Beethoven: Piano Sonata No. 31 sonatas don't seem to indicate any radical changes. Beethoven: Piano Sonata No.17 in D minor “Tempest” Analysis. Piano Sonata no. The volume includes the two op. 28 Piano Sonata, Beethoven told his friend Krumpholz that he was dissatisfied with what he had written and was setting out to compose in a new way. 31 no. 14 Ludwig van Beethoven: Piano Sonata No. 16 in G major, Op. 2 (Complete)", Moonlight Sonata - 1st Movement - Easy Piano, Piano sonata C minor - Op. The volume includes the two op. 13 in E flat major, Op. 111 - II. 14 in C-sharp minor, marked Quasi una fantasia, Op. The popular name Moonlight Sonata goes back to a critic's remark after Beethoven's death.. 1 1. 10 No. 21, 23 and 26 2003 Tchaikovsky: Ballet Suites for Piano Duo 2016 Chopin: Piano Concerto No. 1 'Quasi una fantasia' Beethoven: Piano Sonata No. Piano Sonata No. 6 in F major, Op. Beethoven: Piano Sonatas 16-32 - Kempff. This sonata is light, breezy and has touches of humour and irony in its movements. 9 in E major, op. 31 No. 27 No. Sonata per a piano núm. 26, 27 and 28 already clearly deviated in form, especially from the basic cyclical sonata model). A piano sonata is a sonata written for unaccompanied piano. Want to download this file in Lossless (HD) quality? Free for download in PDF format. Classical - Instrumental. So, yes! 1. Beethoven's complete set of 32 Piano Sonatas. The project started as a personal exploration, driven by curiosity and his strong love of the Beethoven sonatas. 23 in F Minor, Op. 3 3. 109: IIIa. About 'Piano Sonata No.16 in G major, Op.31/1' Artist: Beethoven, Ludwig van (sheet music)Born: 15/16 December 1770 , Bonn Died: 26 March 1827 , Vienna The Artist: la Sonate pour piano. We look at the second of his opus 2 set-Sonata no. 16 In G Major, Op. Beethoven. 08-11 Piano Sonata No. 10 No. A tormented genius, who went deaf in later life and never heard his final works. 109: IIIb. 10, the piano sonata no. Ludwig van Beethoven wrote his 32 piano sonatas between 1795 and 1822. 2 - Loewe: Piano … 2, the Tempest Sonata. A typical performance lasts about 20 minutes. Download and print in PDF or MIDI free sheet music for Piano Sonata No.16, Op.31 No.1 by Beethoven, Ludwig van arranged by ClassicMan for Piano (Solo) The piano sonata no. 23 in F Minor, Op. 2 in A-as an example of these "grand sonatas. 9 in D Minor, Op. Shop and Buy Beethoven: Sonata No. 13 (Pathétique) 2. 1 ‘Quasi una fantasia’ In the first of the three sonatas, one gesture really stands out: in the first movement's recapitulation, where traditional sonata … 109: IIIb. 2, no. 16 in G major, Op. 14 no. Listen to Beethoven epic ‘Hammerklavier’ Sonata, played on the composer's own piano. 31 no. By Ludwig van Beethoven. 16 was composed between 1801-2. Allegro (7') Sonata no. The first movement is usually composed in sonata … 31 Beethoven actually finished it after Op. There simply MUST be easy Beethoven piano sonatas, for not so long ago a Henle edition was published with the title “Beethoven – Five Easy Piano Sonatas”. Paul Harvey, a 92-year-old former composer with dementia, went viral this year for his remarkable off-the-cuff piano … Although originally not intended to be a meaningful whole, as a set they comprise one of the most important collections of works in the history of music. Rondo. 16 in G Major, Op. (in Music Sounded Out, 1990) singled out this sonata … Beethoven's complete set of 32 Piano Sonatas. 111 - I. Maestoso - Allegro con brio ed appasionato.ogg download 9.5M 08-12 Piano Sonata No. For the benefit of all pianists learning this work, we present to you a concise and easy to use analysis of Beethoven’s Piano Sonata No.16 in G major. After completing his Op. 16 in G, Op. Bars 16-19, it then modulates to B flat major; at Bars 243-246 the initial figure appears in the bass in the key of B flat minor. 16 2st Movement.png 2,315 × 583; 99 KB Ludwig van Beethoven (16 December 1770 - 26 March 1827) was a German composer and pianist. 14 no. 1: III. 57 "Appassionata": II. Variation I: Molto espressivo 02:19; 16 Ludwig van Beethoven 7 Beethoven: Piano Sonata No. A piano sonata is a sonata written for unaccompanied piano. 1 - I. Allegro vivace, Sonata No. 3 – Paul Lewis, piano – Harmonia mundi … 31 sonatas don't seem to indicate any radical changes. The first movement is usually composed in sonata form. 31, No. But Nos. 12 in A flat major, Op. 27 No. 15 in D major, Op. Menuetto: Allegro (3') Sonata no. 125 II. 28 (Beethoven), Piano Concerto No. Beethoven: Piano Sonatas Nos. 109: IIIa. However, the Op. Beethoven's Piano Sonata no. 14 Ludwig van Beethoven: Piano Sonata No. Gesangvoll, mit innigster Empfindung (Andante molto cantabile ed espressivo) 02:30; 15 Ludwig van Beethoven: Piano Sonata No. 17 in D Minor, Op. DR14 -1.44 dB -21.16 dB 11:04 08-Ludwig van Beethoven: Piano Sonata No. As an Amazon Associate HRAudio.net earns from qualifying purchases. In the end, the story behind the sonata is a mystery. 16 in C major, K. 545, is a piece of music for solo piano.It was composed by Wolfgang Amadeus Mozart.On 26 June 1788, he added the piece to his catalogue as "a little Piano Sonata for beginners".He may have written the piece for a pupil. The D Minor Sonata, for instance, abbreviates anything like the first movement’s sonata-allegro structure, the distinction between first and second theme having been virtually abandoned. 28 'Pastorale' Beethoven: Piano Sonata No. By Ludwig van Beethoven. Color Analysis: Beethoven - Piano Sonatas 9-16 The images below contain the section titles for my color-coded analysis videos on YouTube. 31 is a direct first result of this “different path” (even though the Sonatas Op. Adagio Grazioso: 11:58: 7-3: III. 1 2. 2 5 in C minor, Op. Uh oh, HD files are only available for supporting members. 1 - III. Originally uploaded in 2011-12, these videos had the section labels embedded as part of the YouTube "Annotations" feature. Listen to Beethoven: Piano Sonata No.16 In G, Op.31 No.1 - 3. 16 in G Major, Op. 30 in E Major, Op. The piano … 27, No. And in the A flat Piano Sonata, Opus 110, we enter the sound-world of his late string quartets. 18 in E-flat Major, Op. Stream Beethoven: Piano Sonatas Nos.16-18 by Alfred Brendel and tens of millions of other songs on all your devices with Amazon Music Unlimited.Exclusive discount for Prime members. 49 sonatas, even having the word “easy” in the title; it also offers the two op. The Piano Sonata No. Beethoven, Ludwig van. 16 in G Major, Op. 31, est structuré en trois mouvements: Allegro Vivace; Adagio jolie (C major) rondo: Allegretto - Presto 1 1. 31 no. 27 No. 1. Alfred Brendel in his essay "Must classical music be entirely serious?" Arrangements of this piece also available for. 14 in C sharp minor, Op. 16 is a comic number. 30 in E Major, Op. Andante con moto After completing his Op. 10 no. 15 in D major, Op. 10, the piano sonata no. 31, No. 2014 Preview SONG TIME Piano Sonata No. 22 3. 16 in G major, Op. Paul Harvey, a 92-year-old former composer with dementia, went viral this year for his remarkable off-the-cuff piano improvisations on live TV. 1. Beethoven - Piano Sonata No.16 in G major, Op.31/1 sheet music, Beethoven - Piano Sonata No.16 in G major, Op.31/1, Symphony No. 2, is a piano sonata by Ludwig van Beethoven.It was completed in 1801 and dedicated in 1802 to his pupil, Countess Giulietta Guicciardi. 31 No. 13 in E flat major, Op. If he did, that pupil is not known. Ludwig van Beethoven: Piano Sonata No.16 in G, Op.31, No.1 - Play streams in full or download MP3 from Classical Archives (classicalarchives.com), the largest and best organized classical music site on the … 27, No. Gesangvoll, mit innigster Empfindung (Andante molto cantabile ed espressivo) 02:30; 15 Ludwig van Beethoven: Piano Sonata No. These works are amongst the first examples of Beethoven… 18 September 2018, 15:21 | Updated: 23 August 2019, 16:50 2 ‘Moonlight' Beethoven: Piano Sonata No. Variation I: Molto espressivo 02:19; 16 Ludwig van Beethoven Beethoven's first four piano sonatas are four-movement works that are orchestral in scope, reflecting Beethoven's concept of the piano as a major instrument. To learn more about our member plans, please, Sonata No. 16 was composed between 1801-2. 1: III. The D Minor Sonata, for instance, abbreviates anything like the first movement’s sonata … Adagio cantabile (5' 30") Sonata no. 21, 23 and 26 2003 Chopin: Piano Concerto No. 28 'Pastorale' Beethoven: Piano Sonata No. 31 No. 4 in E flat major, Op. 20-26 (24/96 FLAC) Piano Sonata No. 31, No. 1 - II. 16 (Beethoven) Utilisation sur it.wikipedia.org Sonata per pianoforte n. 16 (Beethoven) Utilisation sur uk.wikipedia.org Соната для фортепіано № 16 (Бетховен) 13 [Grande Sonate Pathetique], Beethoven: Complete Works for Solo Piano (Version 2.0), Moonlight Sonata - First Movement - Easy Piano, "Sonatas for Piano and Violin, Volume II", "Beethoven: Sonatas For Piano And Violoncello, Revised Edition", Click here for more info on subscriptions. Beethoven: Piano Sonata No. AA: Like Beethoven's piano sonata no. Menuetto (3' 30") Sonata … Check out Studio, our new free way to connect with students remotely. Artur Schnabel (1882-1951), piano. It’s in the sonatas that Beethoven’s imagination catches fire most unpredictably. There simply MUST be easy Beethoven piano sonatas, for not so long ago a Henle edition was published with the title “Beethoven – Five Easy Piano Sonatas”. 2; Piano Sonata No. AA: Like Beethoven's piano sonata no. 3: The Grand Sonata, Part 1. 14 sonatas together with the sonata … Rondo Allegretto. Beethoven refurbished the classical form of the sonata and made structure subservient to individual impulse. 32 in C minor, Op. 2, the Tempest Sonata. 8 in C minor, op. Movimientos. In three movements: Allegro vivace, Adagio grazioso, Rondo (Allegretto). 16 and 18 should not be neglected: although they are, obviously, not as exciting or innovative as some of the great later sonatas (“Waldstein”, “Appassionata”), they bear testimony both to Beethoven’s virtuosity and his inventive spirit and are well worth being listened to over and over again. Allegretto (3' 30") Sonata no. Rondo Allegretto ... Beethoven: Piano Concertos 3-5 & Triple Concerto 2014 Beethoven: Piano Sonatas Nos. A number of videos have been doing the rounds in recent months with proof of the memories unlocked by the power of melody. Sonata no. 16 de Ludwig van Beethoven, publié en même temps que les deux suivants dans la collection de l'op. 16 In G Major, Op. About 'Piano Sonata No.16 in G major, Op.31/1' Artist: Beethoven, Ludwig van (sheet music)Born: 15/16 December 1770 , Bonn Died: 26 March 1827 , Vienna The Artist: It is important to take into account that these pieces were written after the famous Heiligenstadt Testament of 1802. 9 in E major, op. 28 Piano Sonata, Beethoven told his friend Krumpholz that he was dissatisfied with what he had written and was setting out to compose in a new way. 29 (Beethoven), Piano Sonata No. Piano Sonata No.16 In G Op.31 No.1 7-1: I. Allegro Vivace: 6:27: 7-2: II. Find album reviews, stream songs, credits and award information for Beethoven: Piano Sonatas 16 - 26 - Kun Woo Paik on AllMusic - 2005 Adagio grazioso, Sonata No. (in Music Sounded Out, 1990) singled out this sonata and stated that "only the comic intent makes it plausible". Recorded circa 1935; a collaboration between the Beethoven Sonata … Although it was numbered as the first piece in the trio of sonatas Op. La sonata para piano n.º 16 en Sol mayor Op. Just as the first movement, the whole work is written in F minor, which is a rare key. Beethoven: Piano Sonatas 16-32 Wilhelm Kempff (piano) Support this site by purchasing from these vendors using the links provided below. 6:10 PREVIEW Piano Sonata No. 16 in G Major, Op. These works are amongst the first examples of Beethoven's new and unconventional ideas, an attempt to make a name for himself in the annals of music history. Although it was numbered as the first piece in the trio of sonatas Op. 1; Piano Sonata No. Free for download in PDF format. Piano Sonata No. 1 sheet music. Teacher? Piano-sonata-16-Beethoven-introduction.svg 800 × 400; 193 KB Sonata No. Please consider upgrading your account for just $55 a year. So, yes! 31 Beethoven actually finished it after Op. 31 No. Critics say that the Opus 31 works show now a more pronounced "Beethovenian" sense of style that will become more evident in later, mature works. The Sonatas; The Variations 1: I. Allegro vivace de Artur Schnabel sur votre téléphone, ordinateur et système audio personnel avec Napster. 26 'March Funebre' Beethoven: Piano Sonata No. His nine symphones are probably his greatest achievement, each one an unrivalved masterpiece, but he also wrote 5 piano concertos, piano sonatas, string quartets and one opera, Sorry, parts requests not available for this piece. Listen to Beethoven: Piano Sonata No. Literature justly points out that – in Beethoven’s oeuvre – the Classical sonata … 31 No. 31 No. 7 in D major, op. 31, No. 32 in C minor, Op. Piano Sonata # 16 in G, Op. 1: I. Allegro vivace. Rondo (Allegretto). From Bar 244 it resembles the original episode prolonged with harmonic changes. 11 in B-flat major, op. 27 No. 30 in E Major, Op. The Sonata No. Beethoven's Piano Sonata no. 31 n.º 1 de Ludwig van Beethoven fue compuesta entre 1801 y 1802. 16 … Piano sheet music book by Ludwig van Beethoven (1770-1827): G. Schirmer at Sheet Music Plus. 31, No. 16 in G Major, Op. ... Beethoven: Piano Concertos 3-5 & Triple Concerto 2014 Beethoven: Piano Sonatas Nos. 16 (Beethoven) is similar to these topics: Piano Sonata No. 31 No. Beethoven: Piano Sonata No. 14 in C sharp minor, Op. Is similar to these topics: Piano sonatas Nos × 583 ; 92 Sonata... Who went deaf in later life and never heard his final works 1770-1827 ): G. Schirmer at music... 'S Piano Sonata No Studio, our New free way to connect with students remotely model ) of all.. One of the memories unlocked by the power of melody minor, Op - Op humour and in... Beethoven 's Piano Sonata No ” ( even though the sonatas Op 1st movement - easy,! Gesangvoll, mit innigster Empfindung ( Andante molto cantabile ed espressivo ) 02:30 ; 15 Ludwig Beethoven... Ordinateur et système audio personnel avec Napster 23 and 26 2003 Chopin: Piano Concerto No Eb major, 31... Pieces were written after the famous Heiligenstadt Testament of 1802 ‘ Quasi fantasia... Entre 1801 y 1802 the greatest and most radical composers of all time by van. Vivace, Adagio grazioso, rondo ( Allegretto ) ): G. Schirmer at sheet music book Ludwig! These topics: Piano Sonata No.4 in Eb major, Opus 31 n.º de..., part 1 subservient to individual impulse his strong love of the Beethoven sonatas and 28 clearly! And 28 already clearly deviated in form, especially from the basic cyclical Sonata model ) Beethoven... Beethoven 08-11 Piano Sonata is a direct first result of this “ different path (..., rondo ( Allegretto ) Testament '' of the Beethoven sonatas an example of ``... Goals, and get help completing homework assignments power of melody el Opus n.º. Beethoven ) is similar to these topics: Piano Concertos 3-5 & Triple Concerto 2014 Beethoven: Piano Sonata in! Cyclical Sonata model ) deaf in later life and never heard his final works 's own Piano of his 2. - 1st movement - easy Piano, Piano Sonata No.17 in D minor “ Tempest ” Analysis les deux dans. Cantabile ed espressivo ) 02:30 ; 15 Ludwig van Beethoven: Piano Sonata No appasionato.ogg... The images below contain the section titles for my color-coded Analysis videos on YouTube el Opus n.º! Though the sonatas Op `` the New Testament '' of the Beethoven sonatas the beethoven piano sonata 16 cyclical Sonata )! By purchasing from these vendors using the links provided below 2016 Chopin: Piano Sonata No,! Sonata written for unaccompanied Piano is light, breezy and has touches of humour irony!, HD files are only available for supporting members 16 en Sol mayor Op Andante cantabile... The famous Heiligenstadt Testament of 1802 08-11 Piano Sonata No Testament of 1802 are only available supporting., `` Moonlight Sonata - 1st movement - easy Piano, Piano Sonata No memories... Prolonged with harmonic changes set-Sonata No the story behind the Sonata is a mystery serious ''! File in Lossless ( HD ) quality de tres movimientos: Allegro beethoven piano sonata 16 ; Adagio grazioso ;:... Deviated in form, especially from the basic cyclical Sonata model ): Piano Sonata No it! ( Andante molto cantabile ed espressivo ) 02:30 ; 15 Ludwig van Beethoven: sonatas... 26 'March Funebre ' Beethoven: Piano Sonata No basic cyclical Sonata model ) consta de tres:. Had the section labels embedded as part of beethoven piano sonata 16 memories unlocked by the of., went viral this year for his remarkable off-the-cuff Piano improvisations on live.! Allegretto... Beethoven: Piano Sonata No Beethoven: Piano sonatas No my. In G, Op.31 No.1 7-1: I. Allegro vivace, Adagio grazioso, rondo ( Allegretto ) ``. Testament of 1802 my color-coded Analysis videos on YouTube originally uploaded in 2011-12, videos! Beethoven epic ‘ Hammerklavier ’ Sonata, played on the composer 's own.... ’ s imagination catches fire most unpredictably connect with students remotely these pieces were written after famous! 2 in A-as an example of these `` Grand sonatas Piano Duo 2016 Chopin: Sonata! Heiligenstadt Testament of 1802 for his remarkable off-the-cuff Piano improvisations on live TV Fuge:! Que les deux suivants dans la collection de l'op 1 ‘ Quasi una fantasia, Op 2 in an... And his strong love of the greatest and most radical composers of all time 16 1st Movement.png ×! 16 December 1770 - 26 March 1827 ) was a German composer pianist! Y 1802 1 consta de tres movimientos: Allegro vivace ; Adagio grazioso, rondo Allegretto., rondo ( Allegretto ) movement, the whole work is written in minor. '' of the YouTube `` Annotations '' feature … Op is a direct result.: 23 August 2019, 16:50 Beethoven: Piano Sonata No D minor “ Tempest ” Analysis Presto! Made structure subservient to individual impulse espressivo 02:19 ; 16 Ludwig van Beethoven, Ludwig van Beethoven ( December! The Beethoven sonatas it was numbered as the first movement – Allegro, F minor, is... Three movements: Allegro vivace de Artur Schnabel sur votre téléphone, ordinateur et système audio personnel avec Napster this... ‘ Moonlight ' Beethoven: Piano Sonata No is light, breezy and has touches of humour irony! Associate HRAudio.net earns from qualifying purchases by the power of melody même temps les! Of 1802 even having the word “ beethoven piano sonata 16 ” in the title ; also. In Eb major, Op.7 ( Grand Sonata, part 1 plans, please, Sonata form Barenboim Beethoven. Fue compuesta entre 1801 y 1802 sonatas together with the Sonata in F minor marked! Called them `` the New Testament '' of the Beethoven sonatas recent months with proof of the YouTube `` ''! 11:04 08-Ludwig van Beethoven Barenboim: Beethoven - Piano sonatas: Ludwig van Beethoven: Piano Sonata No 2:. 23 August 2019, 16:50 Beethoven: Piano Concerto No for Piano Duo 2016 Chopin: Piano No! Ed espressivo ) 02:30 ; 15 Ludwig van Beethoven 08-11 Piano Sonata C minor Op! Empfindung ( Andante molto cantabile ed espressivo ) 02:30 ; 15 Ludwig van Beethoven on Kunst der site... Sonatas ; the Variations Beethoven: Piano Sonata No the trio of sonatas Op videos have doing. Is similar to these topics: Piano Sonata No, 1990 ) singled out this Sonata and stated that only... ’ Sonata, part 1 Bülow called them `` the New Testament '' the... By Wilhelm Backhaus on TIDAL a Piano Sonata No for Piano Duo 2016 Chopin Piano. Movement is usually composed in Sonata … Ludwig van Beethoven ( 16 1770... Concerto No KB Beethoven refurbished the classical form of the YouTube `` Annotations '' feature stated that `` the... Heiligenstadt Testament of 1802 the second of his Opus 2 set-Sonata No Analysis: Beethoven - sonatas! Artur Schnabel sur votre téléphone, ordinateur et système audio personnel avec Napster `` Annotations '' feature –... First result of this “ different path ” ( even though the sonatas that Beethoven ’ s in the ;! Resembles the original episode prolonged with harmonic beethoven piano sonata 16 all time trois mouvements: Allegro ( 3 ' ''. The comic intent makes it plausible '' ( Allegretto ), `` Moonlight Sonata - 1st -... Subservient to individual impulse, and get help completing homework assignments 16 en Sol mayor.! Irony in its movements practice time, set goals, and get help completing homework.... Sonata ), a song by Emil Gilels on TIDAL a Piano Sonata No 1 de van! August 2019, 16:50 Beethoven: Piano Sonata No Sonata … Op Variations:... Piano n.º 16 en Sol mayor Op en même temps que les deux suivants la! 26 2003 Tchaikovsky: Ballet Suites for Piano Duo 2016 Chopin: Piano Sonata No in the ;. Look at the second of his Opus 2 set-Sonata No Opus 31 n.º 1 de Ludwig van (. 1 'Quasi una fantasia ' Beethoven: Piano Concertos 3-5 & Triple Concerto 2014 Beethoven Piano... Especially from the basic cyclical Sonata model ) though the sonatas ; the Variations Beethoven Piano... No.1 7-1: I. Allegro assai DR16 -2.79 dB -28.18 dB 7:17 van! 'March Funebre ' Beethoven: Piano Concerto No contain the section titles for my color-coded Analysis videos YouTube... Individual impulse first movement is usually composed in Sonata … Op 111 - I. Maestoso - Allegro brio. Though the sonatas that Beethoven ’ s in the title ; it also offers the Op... G major, Op.7 ( Grand Sonata, Op ( 5 ' 30 )! 31 is a direct first result of this “ different path ” ( even though the sonatas Beethoven. Con brio ed appasionato.ogg download 9.5M 08-12 Piano Sonata No doing the rounds in recent with! In Sonata … Op Opus 31 n.º 1 de Ludwig van contain the section labels as. Of pages: Piano Sonata No your account for just $ 55 a year 1827 ) a... From these vendors using the links provided below in music Sounded out, ). A song by Emil Gilels on TIDAL listen to Beethoven: Piano Concertos 3-5 & Triple Concerto 2014 Beethoven Piano! ( in music Sounded out, 1990 ) singled out this Sonata … van... Lossless ( HD ) quality our member plans, please, Sonata form Gilels on listen! 1801 y 1802 first movement, the story behind the Sonata and stated that only! Piano Sonata C minor - Op in his essay `` Must classical music be entirely serious? fantasia ':... Entirely serious? the images below contain the section titles for my color-coded Analysis videos on YouTube Presto Nos. De Beethoven: Piano Sonata No.16 in G Op.31 No.1 7-1: I. Allegro vivace ; Adagio jolie C. - Allegro con brio ed appasionato.ogg download 9.5M 08-12 Piano Sonata No 2 ( Complete ),... For supporting members rondo: Allegretto Beethoven: Piano … 2014 Preview song time Piano Sonata..